[DVDRip] Las Ventajas de ser Invisible [BDRip 720p][LATINO 5.1]DTS[En-US][Sub][Drama][2012] Descargar Gratis

By | 7 febrero, 2013

Las Ventajas de ser Invisible [BDRip 720p][LATINO 5.1]DTS[En-US][Sub][Drama][2012] Descargar Gratis catellano, español latino, dvdrip, full HD 3D, rmvb, Alta Calidad, subtitulos, mediafire, rapidshare, putlocker, MEGA, descarga directa


Las Ventajas de ser Invisible [BDRip 720p][LATINO 5.1]DTS[En-US][Sub][Drama][2012]


Ficha Técnica
TÍTULO ORIGINAL : The Perks of Being a Wallflower
Las Ventajas de ser Invisible
AÑO : 2012
DURACIÓN : 103 min.
PAÍS : EEUU
DIRECTOR : Stephen Chbosky
GUIÓN : Stephen Chbosky (Libro: Stephen Chbosky)
MÚSICA : Michael Brook
FOTOGRAFÍA : Andrew Dunn
REPARTO : Logan Lerman, Emma Watson, Ezra Miller, Mae Whitman, Kate Walsh, Dylan McDermott, Melanie Lynskey, Nina Dobrev, Johnny Simmons, Joan Cusack, Paul Rudd, Nicholas Braun, Reece Thompson, Julia Garner, Tom Savini, Adam Hagenbuch, Zane Holtz
PRODUCTORA : Mr. Mudd / Summit Entertainment
WEB OFICIAL : perks-of-being-a-wallflower.com/
PREMIOS 2012 : Independent Spirit Awards: Nominada a Mejor ópera prima
2012: National Board of Review (NBR): 10 mejores películas del año
2012: Asociación de Críticos de Boston: Mejor actor secundario (Ezra Miller)
2012: Critics Choice Awards: Nominada a mejor actor joven (Lerman) y guión adaptado
GÉNERO : Drama | Drama romántico. Adolescencia. Amistad. Homosexualidad. Colegios & Universidad

Sinopsis
Charlie (Logan Lerman, un joven tímido y marginado, escribe una serie de cartas a una persona sin identificar en las que aborda asuntos como la amistad, los conflictos familiares, las primeras citas, el sexo o las drogas. El protagonista tendrá que afrontar el primer amor (Emma Watson), el suicidio de su primer amigo y su propia enfermedad mental. Al mismo tiempo, lucha por encontrar un grupo de personas con las que pueda encajar y sentirse a gusto.

Datos Técnicos


Código:
General
Format : Matroska
Format version : Version 2
File size : 4.83 GiB
Duration : 1h 42mn
Overall bit rate : 6 732 Kbps
Movie name : www.CadagotoHD.Com ¡Visítanos!
Encoded date : UTC 2013-02-06 18:07:30
Writing application : mkvmerge v3.4.0 (‘Rapunzel’) built on May 15 2010 09:38:20
Writing library : libebml v0.8.0 + libmatroska v0.9.0
Video
ID : 1
Format : AVC
Format/Info : Advanced Video Codec
Format profile : [email protected]
Format settings, CABAC : Yes
Format settings, ReFrames : 5 frames
Codec ID : V_MPEG4/ISO/AVC
Duration : 1h 42mn
Bit rate : 4 584 Kbps
Width : 1 280 pixels
Height : 720 pixels
Display aspect ratio : 16:9
Frame rate mode : Constant
Frame rate : 23.976 fps
Color space : YUV
Chroma subsampling : 4:2:0
Bit depth : 8 bits
Scan type : Progressive
Bits/(Pixel*Frame) : 0.207
Stream size : 3.19 GiB (66%)
Title : www.CadagotoHD.Com ¡Visítanos!
Writing library : x264 core 129 r2245 bc13772
Encoding settings : cabac=1 / ref=5 / deblock=1:0:0 / analyse=0×3:0×133 / me=umh / subme=7 / psy=1 / psy_rd=1.00:0.00 / mixed_ref=1 / me_range=16 / chroma_me=1 / trellis=1 / 8x8dct=1 / cqm=0 / deadzone=21,11 / fast_pskip=0 / chroma_qp_offset=-2 / threads=6 / lookahead_threads=1 / sliced_threads=0 / nr=0 / decimate=1 / interlaced=0 / bluray_compat=0 / constrained_intra=0 / bframes=3 / b_pyramid=2 / b_adapt=1 / b_bias=0 / direct=1 / weightb=1 / open_gop=0 / weightp=2 / keyint=250 / keyint_min=23 / scenecut=40 / intra_refresh=0 / rc_lookahead=40 / rc=2pass / mbtree=1 / bitrate=4584 / ratetol=1.0 / qcomp=0.60 / qpmin=0 / qpmax=69 / qpstep=4 / cplxblur=20.0 / qblur=0.5 / ip_ratio=1.40 / aq=1:1.00
Language : English
Default : No
Forced : No
Audio #1
ID : 2
Format : AC-3
Format/Info : Audio Coding 3
Mode extension : CM (complete main)
Format settings, Endianness : Big
Codec ID : A_AC3
Duration : 1h 42mn
Bit rate mode : Constant
Bit rate : 640 Kbps
Channel(s) : 6 channels
Channel positions : Front: L C R, Side: L R, LFE
Sampling rate : 48.0 KHz
Bit depth : 16 bits
Compression mode : Lossy
Stream size : 470 MiB (10%)
Title : Audio Español Latino AC3 5.1 640Kbps
Language : Spanish
Default : Yes
Forced : Yes
Audio #2
ID : 3
Format : DTS
Format/Info : Digital Theater Systems
Mode : 16
Format settings, Endianness : Big
Codec ID : A_DTS
Duration : 1h 42mn
Bit rate mode : Constant
Bit rate : 1 509 Kbps
Channel(s) : 6 channels
Channel positions : Front: L C R, Side: L R, LFE
Sampling rate : 48.0 KHz
Bit depth : 24 bits
Compression mode : Lossy
Delay relative to video : 11ms
Stream size : 1.08 GiB (22%)
Title : Audio Ingles DTS
Language : English
Default : No
Forced : No
Text #1
ID : 4
Format : UTF-8
Codec ID : S_TEXT/UTF8
Codec ID/Info : UTF-8 Plain Text
Title : Sub Español Latino
Language : Spanish
Default : No
Forced : No
Text #2
ID : 5
Format : UTF-8
Codec ID : S_TEXT/UTF8
Codec ID/Info : UTF-8 Plain Text
Title : Forzados
Language : Spanish
Default : Yes
Forced : Yes
Menu
00:00:00.000 : en:00:00:00.000
00:05:04.387 : en:00:05:04.387
00:10:24.624 : en:00:10:24.624
00:17:06.984 : en:00:17:06.984
00:21:38.005 : en:00:21:38.005
00:28:31.501 : en:00:28:31.501
00:33:09.070 : en:00:33:09.070
00:39:55.351 : en:00:39:55.351
00:47:17.001 : en:00:47:17.001
00:54:38.859 : en:00:54:38.859
00:58:15.951 : en:00:58:15.951
01:03:17.961 : en:01:03:17.961
01:10:13.126 : en:01:10:13.126
01:18:31.790 : en:01:18:31.790
01:23:11.612 : en:01:23:11.612
01:31:12.384 : en:01:31:12.384












Deseas Bajar A Maxima Velocidad?,Cliquea Este Link Y Adquiere Tu Premiun y Me Ayudas A Seguir Subiendo!
Si Puedes Compra con Duracion de 3 – 6 Meses – 1 Año Sin Problemas y Descarga sin Limite!
Si Tienes Cuenta En Uploaded y deseas ayudar , registrate con un E-Mail totalmente nuevo ..Gracias !

http://down.moviespeliculas.co/decode.php?h=aHR0cDovL3VsLnRvL3JlZi8yMTQ0MjYz

Links De 500 Mb!
¡Descargar Los Enlaces AQUI!
http://down.moviespeliculas.co/decode.php?h=aHR0cDovL3MybC5iaXovdXNqZnRobWl3cTI1






Deseas Peliculas 720p – 1080p – 3D SBS – BluRay BD25 En Español Latino?

¡Solo Tienes Que Seguirme … CadagotoHD Siempre Lo Mejor en HD De La Web!

Las Ventajas de ser Invisible [BDRip 720p][LATINO 5.1]DTS[En-US][Sub][Drama][2012] Descargar Gratis catellano, español latino, dvdrip, full HD 3D, rmvb, Alta Calidad, subtitulos, mediafire, rapidshare, putlocker, MEGA, descarga directa

  • beatrice tearp@an-neuss de loc:ES
  • beatrice erpte@an-neuss de loc:ES
  • beatrice reaik@an-neuss de loc:ES
  • roland nitracshi@an-neuss de loc:ES
  • beatrice reatp@an-neuss de loc:ES
  • beatrice eunmdd@jasmin-wagner-fans de loc:ES
  • paul rdeahreb@an-neuss de loc:ES
  • stephan lxaendrea@jasmin-wagner-fans de loc:ES
  • beatrice hiulrc@an-neuss de loc:ES
  • descargar las ventajas de ser invisible latino